Try Our New BETA Version
GO
(navigation image)
Home Audio Books & Poetry | Community Audio | Computers & Technology | Grateful Dead | Live Music Archive | Music, Arts & Culture | Netlabels | News & Public Affairs | Non-English Audio | Podcasts | Radio Programs | Spirituality & Religion
Search: Advanced Search
Anonymous User (login or join us)
Upload

Listen to audio

item image
Run time: 35:26

Stream (help[help])

VBR M3U
MP3 via M3U

Play / Download (help[help])

VBR ZIP

Ogg Vorbis

Lossless zip


All Files: HTTPS Torrent (2/0)

Resources

Bookmark

Jason BoeselJason Boesel Live at Der Rathskeller- UW Memorial Union on 2010-02-13 (February 13, 2010)

something has gone horribly wrong 8-p
Prefer flash? · Embed · Questions/Feedback?


Collection: JasonBoesel
Band/Artist: Jason Boesel
Date: February 13, 2010 (check for other copies)
Venue: Der Rathskeller- UW Memorial Union
Location: Madison WI USA

Source: SBD + Audience 4-channel post-production matrix mix
Lineage: WAV > Audacity 1.3.11 > xACT 1.71 > FLAC level 8
Taped by: morst
Transferred by: morst
Keywords: Dawes; Live Concert; SBD + AUD mix; matrix mix; 16-bit version for CD burning


Description

1. French Kissing
2. Burned Out And Busted
3. Hustler's Son
4. Getting Healthy (Good Luck)
5. Miracles
6. I Got the Reason #1
7. Hand Of God

Notes

Jason Boesel and The Sparkling Waterboys
Saturday, February 13, 2010
Madison WI
Der Rathskeller at the UW Memorial Union

www.dawestheband.com

Dawes with Jason Boesel played first, then Cory Chisel & Wandering Sons featuring Miles & Daxx Nielsen, then Dawes

Sources:
Mackie SBD tape outs > Sony PCM-M1 > DAT @16/48
Neumann KM140's > Beyer MV100 > M-Audio Microtrack II > WAV @24/48

Transfer:
WAV files > Audacity 1.3.11 (speed change of .0037% on DAT SBD source, mix sources@ SBD -6dB, AUD -3dB) > WAV @24/48 > Audacity 1.3.11 (tracking, convert & dither) > WAV files @16/44.1 > xACT1.71 > FLAC level 8

FoH audio: Scott (Intellisound)

recordist: morst

SHNTOOL:
length expanded size cdr WAVE problems fmt ratio filename
4:27.29 47167052 B --- -- ---xx JasonBoesel2010-02-13-MTX-t01.flac
4:45.39 50365772 B --- -- ---xx JasonBoesel2010-02-13-MTX-t02.flac
4:24.35 46651964 B --- -- ---xx JasonBoesel2010-02-13-MTX-t03.flac
5:34.67 59075228 B --- -- ---xx JasonBoesel2010-02-13-MTX-t04.flac
5:18.22 56146988 B --- -- ---xx JasonBoesel2010-02-13-MTX-t05.flac
6:18.10 66702764 B --- -- ---xx JasonBoesel2010-02-13-MTX-t06.flac
4:36.34 48766412 B --- -- ---xx JasonBoesel2010-02-13-MTX-t07.flac
35:25.11 374876180 B 0.4982 (7 files)

-~-~-~-~-~-~-~-~-~-~-~-~-~-~-~-~-~-~-~-~-~-~-~-~-~-
The Soundscape Preservation Society (Founded 1991)
http://www.iamtypingwithonefinger.com/SPS.html
-~-~-~-~-~-~-~-~-~-~-~-~-~-~-~-~-~-~-~-~-~-~-~-~-~-

Note - some minor crackling sounds are audible in the first song, they are present on both the master recordings.

Individual Files

Whole Item FormatSize
[generated M3U] M3U Stream 
[generated VBR MP3 ZIP] VBR MP3 ZIP Stream 
Audio Files Flac FingerPrint Checksums Flac VBR MP3 Ogg Vorbis PNG
French Kissing 24.6 MB 
6.2 MB 
3.3 MB 
11.0 KB 
Burned Out And Busted 22.6 MB 
6.6 MB 
3.4 MB 
9.2 KB 
Hustler's Son 21.9 MB 
6.2 MB 
3.2 MB 
10.3 KB 
Getting Healthy (Good Luck) 28.7 MB 
7.7 MB 
4.1 MB 
8.2 KB 
Miracles 26.8 MB 
7.4 MB 
3.8 MB 
11.3 KB 
I Got the Reason #1 29.5 MB 
8.8 MB 
4.5 MB 
9.9 KB 
Hand Of God 476.0 B 
483.0 B 
23.9 MB 
6.4 MB 
3.3 MB 
11.0 KB 
Image Files JPEG JPEG Thumb
P2260919-512w.jpg 140.2 KB 
5.0 KB 
Information FormatSize
JasonBoesel2010-02-13-MTX-flac.ffp Flac FingerPrint 476.0 B 
JasonBoesel2010-02-13-MTX-flac.md5 Checksums 483.0 B 
JasonBoesel2010-02-13.matrix_files.xml Metadata [file] 
JasonBoesel2010-02-13.matrix_meta.xml Metadata 4.0 KB 
Other Files Text Archive BitTorrent
JasonBoesel2010-02-13-2448-info.txt 2.7 KB 
JasonBoesel2010-02-13.matrix_archive.torrent 17.7 KB 

Be the first to write a review
Downloaded 912 times
Reviews


Terms of Use (31 Dec 2014)